N E I A . RU

С Нами Быстрее

Быстрый трекер для Духовного Процессинга

Текущее время: 22 янв 2018, 22:42

Часовой пояс: UTC + 3 часа




Начать новую тему Ответить на тему  [ 1 сообщение ] 
Автор Сообщение
СообщениеДобавлено: 07 сен 2016, 14:14 
Не в сети
Раздал: 2.62 ГБ
Скачал: 37.68 МБ
Ратио: 71.234


Зарегистрирован: 10 апр 2011, 23:53
Сообщения: 2
Мэстрица / The Matrix



Дата/Год выпуска: 1999
Страна: США, Австралия
Жанр: фантастика, боевик, прикольный перевод
Продолжительность: 2:16:18
Перевод: Авторский (одноголосый закадровый) alpok
Русские субтитры: нет

Режиссер: Лэрри Вачовски / Larry Wachowski, Энди Вачовски / Andy Wachowski

В ролях: Киану Ривз /Keanu Reeves/, Лоренс Фишбёрн /Laurence Fishburne/, Кэрри-Энн Мосс /Carrie-Anne Moss/, Хьюго Уивинг /Hugo Weaving/, Глория Фостер /Gloria Foster/, Джо Пантолиано /Joe Pantoliano/, Маркус Чонг /Marcus Chong/, Джулиан Араханга /Julian Arahanga/, Мэтт Доран /Matt Doran/, Белинда МакКлори /Belinda McClory/

Описание: В мире происходит что-то странное. То тут, то там появляется безумного вида человек, который утверждает, что он – ОТ 100. Его неадекватные поступки вполне соответствуют его внешнему виду. Хуже всего то, что он пытается войти в контакт с человеком, чей интеллект даже трудно назвать интеллектом. Соответствующие органы пытаются помешать этому. Но так ли всё просто? Если бы только люди осознали, что они уже давно не играют в игру Жизнь, а пребывают в гипнотическом сне, не зная, кто они на самом деле! Человечество нужно разбудить. Команда продвинутых саентологов делает всё возможное для этого. Но кто у них Командный Офицер? Кто направляет их действия? Только не говорите, что это вышеупомянутый ОТ 100…

Сэмпл: http://sendfile.su/1263647

качество: HDRip
формат: AVI
видеокодек: XviD
аудиокодек: mp3
Видео: 720x304 (2.37:1), 23.976 fps, XviD build 50 ~1323 kbps avg, 0.25 bit/pixel
Аудио: 44.100 kHz, MPEG Layer 3, 2 ch, ~128.00 kbps avg
Общее
Полное имя : D:\Mestritza_rutracker_org\Mestritza_(by_alpok).avi
Формат : AVI
Формат/Информация : Audio Video Interleave
Размер файла : 1,39 Гбайт
Продолжительность : 2 ч. 16 м.
Общий поток : 1461 Кбит/сек
Библиотека кодирования : VirtualDub build 18160/release

Видео
Идентификатор : 0
Формат : MPEG-4 Visual
Профиль формата : Advanced [email protected]
Параметр BVOP формата : 1
Параметр QPel формата : Нет
Параметр GMC формата : Без точки перехода
Параметр матрицы формата : Выборочная
Идентификатор кодека : XVID
Идентификатор кодека/Подсказка : XviD
Продолжительность : 2 ч. 16 м.
Битрейт : 1324 Кбит/сек
Ширина : 720 пикселей
Высота : 304 пикселя
Соотношение сторон : 2,35:1
Частота кадров : 23,976 кадра/сек
Цветовое пространство : YUV
Субдискретизация насыщенности : 4:2:0
Битовая глубина : 8 бит
Тип развёртки : Прогрессивная
Метод сжатия : С потерями
Бит/(Пиксели*Кадры) : 0.252
Размер потока : 1,26 Гбайт (91%)
Библиотека кодирования : XviD 1.2.1 (UTC 2008-12-04)

Аудио
Идентификатор : 1
Формат : MPEG Audio
Версия формата : Version 1
Профиль формата : Layer 3
Режим : Joint stereo
Расширение режима : MS Stereo
Идентификатор кодека : 55
Идентификатор кодека/Подсказка : MP3
Продолжительность : 2 ч. 16 м.
Вид битрейта : Постоянный
Битрейт : 128 Кбит/сек
Каналы : 2 канала
Частота : 44,1 КГц
Метод сжатия : С потерями
Размер потока : 125 Мбайт (9%)
Выравнивание : Разделение по промежуткам
Продолжительность промежутка : 41 мс. (0,99 видеокадр)
Время предзагрузки промежутка : 500 мс.

Фильм изобилует специальной терминологией (в этом и задумка!), поэтому в полной мере оценить юмор сможет тот, кто имел некоторый опыт в этой области или читал соответствующую литературу.
Желающие уточнить то или иное слово имеют возможность сделать это, воспользовавшись словарём, который идет в этой раздаче отдельным файлом.







Вернуться к началу
 Профиль  
Ответить с цитатой  
  • Торрент
Автор: alpok Хэш: 57aa884479879c1ca9aaee2203c8dce5dba1671c
Добавлен: 07 сен 2016, 14:07 Приватный: Нет (DHT включён)
Статус: Проверен
Размер: 1.39 ГБ (1 493 843 456 байт)
Изменил: astar (11 сен 2016, 13:18)
Скачали: 2 (Раздающих: 100%)
Причина:
---
Здоровье: 100%
Сидеров: 2 Личеров: 0
Скорость раздачи: 0 байт/сек Скорость скачивания: 0 байт/сек
Последний сидер: 12 минут 56 секунд назад Последний личер: 5 месяцев 11 часов 20 минут 55 секунд назад
Другие Авторы и разные материалы Скачать торрент
Скачать торрент
[ Размер 14.23 КБ / Просмотров 207 ]
Показать сообщения за:  Поле сортировки  
Начать новую тему Ответить на тему  [ 1 сообщение ] 

Часовой пояс: UTC + 3 часа


Кто сейчас на конференции

Сейчас этот форум просматривают: нет зарегистрированных пользователей и гости: 1


Вы не можете начинать темы
Вы не можете отвечать на сообщения
Вы не можете редактировать свои сообщения
Вы не можете удалять свои сообщения
Вы не можете добавлять вложения

Найти:
Перейти:  
cron
Ресурс не предоставляет электронные версии произведений, а занимается лишь коллекционированием и каталогизацией ссылок, присылаемых и публикуемых на форуме нашими читателями. Если вы являетесь правообладателем какого-либо представленного материала и не желаете чтобы ссылка на него находилась в нашем каталоге, свяжитесь с нами и мы незамедлительно удалим её. Файлы для обмена на трекере предоставлены пользователями сайта, и администрация не несёт ответственности за их содержание. Просьба не заливать файлы, защищенные авторскими правами, а также файлы нелегального содержания!
ppkBB3cker v.2 © 2008-2014 @ PPK